#TITLE:Driping Tears;
#SUBTITLE:Expi3nze;
#ARTIST:Son Dam Bi;
#TITLETRANSLIT:;
#SUBTITLETRANSLIT:;
#ARTISTTRANSLIT:;
#CREDIT:;
#BANNER:bn.png;
#BACKGROUND:bg.png;
#LYRICSPATH:;
#CDTITLE:cdtitle.png;
#MUSIC:Driping Tears.mp3;
#OFFSET:0.140;
#SAMPLESTART:100.000;
#SAMPLELENGTH:12.000;
#SELECTABLE:YES;
#BPMS:0.000=130.000,3.000=65.000,3.333=260.000,4.000=130.000,19.000=65.000,19.333=260.000,20.000=130.000,260.000=-65.000,264.000=130.000;
#STOPS:;
#BGCHANGES:;
// cache tags:
#FIRSTBEAT:4.000;
#LASTBEAT:308.000;
#SONGFILENAME:Songs/Expi3nze 4th Collection/Driping Tears  (Son Dam Bi)/Driping Tears.sm;
#HASMUSIC:1;
#HASBANNER:1;
#MUSICLENGTH:138.844;
// end cache tags

//---------------dance-single - ----------------
#NOTES:
     dance-single:
     :
     Easy:
     1:
     0.000,0.000,0.000,0.000,0.000,0.000,0.000,0.000,0.000,0.000:
0000
0000
0000
0000
;

//---------------dance-couple - Copied from----------------
#NOTES:
     dance-couple:
     Copied from:
     Easy:
     1:
     0.000,0.000,0.000,0.000,0.000,0.000,0.000,0.000,0.000,0.000:
00000000
00000000
00000000
00000000
;

//---------------dance-single - Copied from----------------
#NOTES:
     dance-single:
     Copied from:
     Hard:
     15:
     0.827,0.860,1.000,0.735,0.058,452.000,237.000,102.000,0.000,81.000:
0000
0000
0000
0000
,
0220
0000
0000
0002
0000
0003
0302
0000
,
0233
0000
0000
0000
0000
0010
0010
1000
,
0320
0000
0030
0020
0000
0030
0020
0000
,
0230
0000
0000
0000
0000
0020
0000
0300
,
0232
0000
0000
0020
0000
0030
0020
0000
,
2333
0000
0000
0000
0000
0010
0010
0100
,
3020
0000
0030
0020
0000
0030
0020
0000
,
0131
0000
0101
0000
0101
0000
1000
0100
0011
0000
1001
0000
1100
0000
0010
1000
,
0111
0000
0010
0011
1001
1100
1001
0010
,
1100
0001
0010
0101
1010
1010
1010
0000
,
0101
0000
0011
1001
1100
0001
0101
0101
,
0010
0001
1100
0001
1100
1001
0011
0100
,
1110
0001
0010
1001
1100
1001
0011
0100
,
1001
0010
1100
0001
1000
1010
1001
1010
,
1001
0000
0100
0010
0100
0000
0101
0000
0101
0000
1001
0000
1010
0000
0100
0000
,
0100
0000
0000
0010
0010
0000
0100
0001
0010
0000
1100
0000
1100
0000
0001
0001
,
1100
1100
0001
1100
2000
0200
0011
0000
,
3312
0000
1010
1000
0010
1013
1010
1001
,
1010
1010
0011
0011
1000
0011
0020
0000
,
0102
0000
0100
0233
0000
0311
0011
1000
,
0111
0101
1000
0101
0102
0020
0103
0030
,
0102
0200
0023
0302
,
1133
2101
3020
2100
,
0230
0000
3012
0000
0320
0000
2003
0030
,
3011
0000
0011
1000
0011
1001
1001
1100
,
0001
0110
1100
0001
0101
1001
1010
1010
,
0011
1000
0011
1001
1100
1000
0011
0011
,
1000
0101
0101
1001
1010
1010
0011
1000
,
0111
0001
1100
0001
0011
1001
1001
1100
,
1000
0011
0011
1010
1010
0101
0101
1000
,
0011
1000
1001
1010
1001
1000
0011
0011
,
0100
1000
0011
1000
0011
1000
0010
1000
,
1110
0001
1010
0020
0000
1030
1010
0001
,
2010
0000
0010
3020
1000
1030
1100
0001
,
1100
0001
1100
2000
0000
3001
0101
0100
,
0120
0000
1000
1032
1010
0013
1000
0010
,
1110
0001
1010
0020
0000
1030
1010
0010
,
2010
0000
0010
3020
0000
0030
0101
0101
,
1010
0000
0010
0100
1010
0000
0010
0000
0000
0000
0100
0000
0100
0000
0001
0000
,
0101
0000
0101
0000
0101
0000
1000
0100
0011
0000
1001
0000
1100
0000
0010
1000
,
0111
0000
0010
0011
1001
1100
1001
0010
,
1100
0001
0010
0101
1010
1010
1010
0000
,
0101
0000
0011
1001
1100
0001
0101
0101
,
0010
0001
1100
0001
1100
1001
0011
0100
,
1110
0001
0010
1001
1100
1001
0011
0100
,
1001
0010
1100
0001
1000
1010
1001
1010
,
1001
0000
0100
0010
0100
0000
0101
0000
0101
0000
1001
0000
1010
0000
0100
0000
,
0100
0000
0000
0010
0010
0000
0100
0001
0010
0000
1100
0000
1100
0000
0001
0001
,
1100
1100
0001
1100
2000
0200
0011
0000
,
3312
0000
1010
1000
0010
1013
1010
1001
,
1010
1010
0011
0011
1000
0011
0020
0000
,
0102
0000
0100
0233
0000
0311
0011
1000
,
0111
0101
1000
0101
0102
0020
0103
0030
,
0102
0200
0023
0302
,
1133
2101
3020
2100
,
0230
0000
3012
0000
0320
0000
2003
0030
,
3002
0000
0000
2000
0000
3000
2000
0000
,
3203
0000
0000
0000
0000
0010
0010
1000
,
0320
0000
0030
0020
0000
0030
0020
0000
,
0230
0000
0000
0000
0000
0000
0000
0300
,
0202
0000
0000
0020
0000
0030
0020
0000
,
2333
0000
0000
0000
0000
0010
0010
0100
,
3020
0000
0030
0020
0000
0030
0020
0000
,
0131
0000
0101
0000
0101
0000
1000
0100
0011
0000
1100
0001
1100
0000
0001
0010
,
0000
0000
0000
0000
,
0000
0000
0000
0000
,
0000
0000
0000
0000
,
1100
1100
0001
1100
2000
0200
0011
0000
,
3312
0000
1010
1000
0010
1013
1010
1001
,
1010
1010
0011
0011
1000
0011
0020
0000
,
0102
0000
0100
0233
0000
0311
0011
1000
,
0111
0101
1000
0101
0102
0020
0103
0030
,
0102
0200
0023
0302
,
1133
2101
3020
2100
,
0230
0000
3012
0000
0320
0000
2003
0030
,
3022
0000
0000
0000
,
0033
0000
0000
0000
;
